#TITLE:薔薇の拾杯;
#SUBTITLE:- Rozen Maiden;
#ARTIST:光宗信吉;
#TITLETRANSLIT:Bara no Jubai;
#SUBTITLETRANSLIT:;
#ARTISTTRANSLIT:Mitsumune Shinkichi;
#CREDIT:Mellow;
#BANNER:banner.png;
#BACKGROUND:background.jpg;
#LYRICSPATH:;
#CDTITLE:CREDIT.png;
#MUSIC:23 - Bara no Jubai.mp3;
#OFFSET:-0.320;
#SAMPLESTART:30.020;
#SAMPLELENGTH:12.500;
#SELECTABLE:YES;
#BPMS:0.000=146.000,232.000=120.000,233.000=110.000,234.000=80.000,235.000=70.000,236.000=60.000,238.250=70.000;
#STOPS:;
#BGCHANGES:;
// cache tags:
#FIRSTBEAT:0.000;
#LASTBEAT:248.000;
#SONGFILENAME:songs/Otaku's Dream 3rd Anime Mix/[errorrrr] Bara no Jubai - Rozen Maiden/Bara no Jubai.sm;
#HASMUSIC:1;
#HASBANNER:1;
#MUSICLENGTH:109.832;
// end cache tags

//---------------dance-single - ----------------
#NOTES:
     dance-single:
     :
     Hard:
     9:
     0.766,0.931,0.947,1.000,0.055,373.000,104.000,112.000,0.000,0.000:
2002
3003
0010
1000
0100
0010
0001
0100
,
2002
3003
0010
0010
0100
0010
0100
0010
,
2002
3003
0100
0010
1000
0100
0001
0010
,
2002
3003
0010
0100
0010
1000
0001
0100
,
2020
3030
0010
0001
0100
0001
0010
1000
,
0202
0303
0010
0100
0010
1000
0100
0001
,
2020
3030
0010
0100
0001
1000
0100
0001
,
0220
0330
1000
0010
0001
1000
0001
0100
,
2002
3003
0110
0000
1001
0010
1000
0001
,
0220
0330
1001
0000
0110
1000
0010
0100
,
2002
3003
0110
0000
1001
0100
0010
0001
,
0220
0330
1001
0000
0110
1000
0001
0100
,
0220
0330
0101
0000
1010
0001
0010
0100
,
2020
3030
0101
0000
1010
0001
0010
0100
,
2020
3030
0101
0000
0101
0010
0001
1000
,
0022
0033
1010
0000
0101
0010
0100
0010
,
2002
3003
0110
0000
1001
0100
0001
0100
,
2020
3030
0101
0000
0110
0001
1000
0010
,
0220
0330
1001
0000
0110
1000
0010
0100
,
2002
3003
0110
0000
0110
1000
0001
0100
,
0220
0330
0110
0000
1001
0010
0100
0010
,
2002
3003
1001
0000
0110
0001
1000
0001
,
0220
0330
0110
0000
1001
0010
1000
0001
,
0202
0303
0101
0000
1010
0100
0010
1000
,
2002
3003
1001
0000
0110
0001
0010
0100
,
0220
0330
0110
0000
1001
0100
0010
1000
,
0220
0330
0110
0000
1001
0100
0010
0001
,
0220
0330
0110
0000
1001
0100
0001
0010
,
0202
0303
0101
0000
1010
0100
0010
1000
,
2020
3030
0101
0000
1010
0100
0010
0100
,
0202
0303
0101
0000
1010
0010
1000
0010
,
0220
0330
0110
0000
1001
0010
0001
0100
,
0010
0100
0000
0000
0101
0000
0000
0000
1010
0000
0000
0000
1001
0000
0000
0000
,
0010
1000
0000
0000
0101
0000
0000
0000
1010
0000
0000
0000
0101
0000
0000
0000
,
0010
1000
0000
0000
0101
0000
0000
0000
1010
0000
0000
0000
1001
0000
0000
0000
,
0100
0010
0000
0000
0101
0000
0000
0000
1010
0000
0000
0000
0101
0000
0000
0000
,
0010
0100
0000
0000
0101
0000
0000
0000
1010
0000
0000
0000
1001
0000
0000
0000
,
0010
0100
0000
0000
0101
0000
0000
0000
1010
0000
0000
0000
0110
0000
0000
0000
,
1000
0100
0000
0000
0101
0000
0000
0000
1010
0000
0000
0000
0101
0000
0010
0000
,
0100
0000
1000
0000
0010
0000
1000
0000
0110
0000
0000
0000
1000
0100
0001
0010
,
2000
0100
0001
0100
,
0001
0000
0000
3000
0001
0000
0100
0000
0001
0000
1000
0000
0100
0000
0001
0000
,
0200
0000
0001
0000
0001
0000
0001
0300
,
0012
0000
0010
0000
1000
0100
1000
0100
,
0010
0000
0100
0000
0100
1000
0100
1000
,
0100
0003
0010
0001
0010
0100
0001
1000
,
0120
1000
0100
1000
,
1000
0030
0100
0001
1000
0100
0010
0001
,
0100
1000
0001
0010
0002
0203
2300
3020
,
0032
0000
0100
0000
1000
0100
1000
0100
,
0010
0003
0100
0010
0200
2300
3200
0320
,
0032
0000
0023
0000
0230
0000
2300
0100
,
3010
0100
0010
0100
0002
0023
0230
2300
,
3020
0000
0100
0000
0100
0001
0100
0001
,
0100
0030
0010
0100
0020
0230
2300
3200
,
0320
0032
0023
0032
,
0023
0230
2300
3002
0023
0230
2300
3020
,
0032
0203
2300
3020
0230
0302
2003
3020
,
0230
0300
0000
0000
0000
0000
0000
0000
0000
0000
0000
0000
0000
0000
0000
0000
0000
0000
0000
0000
0000
0000
0000
0000
1000
0000
0000
0000
0000
0000
0000
0000
0000
0000
0000
0000
0000
0000
0000
0000
0000
0000
0000
0000
0000
0000
0000
0000
0100
0000
0000
0000
0000
0000
0000
0000
0000
0000
0000
0000
0000
0000
0000
0000
0000
0000
0000
0000
0000
0000
0000
0000
0010
0000
0000
0000
0000
0000
0000
0000
0000
0000
0000
0000
0000
0000
0000
0000
0000
0000
0000
0000
0000
0000
0000
0000
0100
0000
0000
0000
0000
0000
0000
0000
0000
0000
0000
0000
0000
0000
0000
0000
0000
0000
0000
0000
0000
0000
0000
0000
0010
0000
0000
0000
0000
0000
0000
0000
0000
0000
0000
0000
0000
0000
0000
0000
0000
0000
0000
0000
0000
0000
0000
0000
0100
0000
0000
0000
0000
0000
0000
0000
0000
0000
0000
0000
0000
0000
0000
0000
0000
0000
0000
0000
0000
0000
0000
0000
0010
0000
0000
0000
0000
0000
0000
0000
0000
0000
0000
0000
0000
0000
0000
0000
0000
0000
0000
0000
0000
0000
0000
0000
,
1000
0000
0000
0000
0000
0000
0100
0000
0000
0000
0000
0000
0010
0000
0000
0000
0000
0000
0001
0000
0000
0000
0000
0000
0000
0000
0000
0001
0010
0100
2000
0000
0000
0000
0000
0000
0000
0000
0000
0000
0000
0000
0000
0000
0000
0000
0000
0000
,
0000
0000
0000
0000
,
0000
0000
0000
0000
,
3000
0000
0000
0000
;

//---------------dance-single - Copied from----------------
#NOTES:
     dance-single:
     Copied from:
     Challenge:
     11:
     0.814,0.931,0.947,0.473,0.055,470.000,104.000,52.000,0.000,0.000:
1001
0000
0010
1000
0100
0010
0001
0100
,
1001
0100
0010
0010
0100
0010
0100
0010
,
1001
0010
0100
0010
1000
0100
0001
0010
,
1001
0100
0010
0100
0010
1000
0001
0100
,
1010
0100
0010
0001
0100
0001
0010
1000
,
0101
0010
1000
0100
0010
1000
0100
0001
,
1010
0100
0001
0100
0001
1000
0100
0001
,
0110
0010
1000
0010
0001
1000
0001
0100
,
1001
0010
0110
0100
1001
0010
1000
0001
,
0110
0100
1001
0010
0110
1000
0010
0100
,
1001
0100
0110
0010
1001
0100
0010
0001
,
0110
0010
1001
0100
0110
1000
0001
0100
,
0110
0001
0101
0010
1010
0001
0010
0100
,
1010
0100
0101
0100
1010
0001
0010
0100
,
1010
0010
0101
0100
1100
0010
0001
1000
,
0011
0010
1010
0100
0101
0010
0100
0010
,
1001
0010
0110
0100
1001
0100
0001
0100
,
1010
0010
0101
0100
0110
0001
1000
0010
,
0110
0100
1001
0010
0110
1000
0010
0100
,
1001
0010
0110
0100
1010
1000
0001
0100
,
0110
0010
0101
0100
1001
0010
0100
0010
,
1001
0100
1001
0010
0110
0001
1000
0001
,
0110
0100
1010
0100
1001
0010
1000
0001
,
0101
0010
0101
0100
1010
0100
0010
1000
,
1001
0100
1001
0010
0110
0001
0010
0100
,
0110
0010
1010
1000
1001
0100
0010
1000
,
0110
0100
1010
0010
1001
0100
0010
0001
,
0110
0010
0101
0010
1001
0100
0001
0010
,
0101
0010
0101
0100
1010
0100
0010
1000
,
1010
0010
0101
0100
1010
0100
0010
0100
,
0101
0010
0101
0100
1010
0010
1000
0010
,
0110
0100
1010
0100
1001
0010
0001
0100
,
0010
0100
0000
0000
0101
0000
0100
0000
1010
0000
0100
0000
1001
0000
0010
0000
,
0010
1000
0000
0000
0101
0000
0010
0000
1010
0000
0100
0000
0101
0000
0010
0000
,
0010
1000
0000
0000
0101
0000
0010
0000
1010
0000
0100
0000
1001
0000
0010
0000
,
0100
0010
0000
0000
0101
0000
0100
0000
1010
0000
0010
0000
0101
0000
0010
0000
,
0010
0100
0000
0000
0101
0000
0100
0000
1010
0000
0100
0000
1001
0000
0010
0000
,
0010
0100
0000
0000
0101
0000
0100
0000
1010
0000
0010
0000
0110
0000
0001
0000
,
1000
0100
0000
0000
0101
0000
0100
0000
1010
0000
0010
0000
0101
0000
0010
0000
,
0100
0000
1000
0000
0010
0000
1000
0000
0110
0000
0000
0000
1000
0100
0001
0010
,
2000
0000
0100
0001
0100
0001
0100
0001
,
0100
0000
0001
3000
0010
0000
0100
0000
0001
0000
1000
0000
0100
0000
0001
0000
,
0200
0010
0001
0010
0001
0010
0001
0310
,
1002
0100
1000
0100
1000
0100
1000
0100
,
0010
1000
0010
1000
0010
1000
0010
1000
,
0010
0003
0010
0001
0010
0100
0001
1000
,
0120
0000
1000
0100
1000
0100
1000
0100
,
1000
0030
0100
0001
1000
0100
0010
0001
,
0100
1000
0001
0010
0002
0203
2300
3020
,
0032
0000
1000
0100
1000
0100
1000
0100
,
0010
0003
0100
0010
0200
2300
3200
0320
,
0032
0103
0020
1030
0200
0301
2000
0100
,
3010
0100
0010
0100
0002
0023
0230
2300
,
3020
0000
0100
0000
0100
0001
0100
0001
,
0100
0030
0010
0100
0020
0230
2300
3200
,
0320
0000
0032
0103
0020
1030
0002
0103
,
0020
0230
2300
3002
0023
0230
2300
3020
,
0032
0203
2300
3020
0230
0302
2003
3020
,
0230
0300
0000
0000
0000
0000
0000
0000
0000
0000
0000
0000
0000
0000
0000
0000
0000
0000
0000
0000
0000
0000
0000
0000
1000
0000
0000
0000
0000
0000
0000
0000
0000
0000
0000
0000
0000
0000
0000
0000
0000
0000
0000
0000
0000
0000
0000
0000
0200
0000
0000
0000
0000
0000
0000
0000
0000
0000
0000
0000
0000
0000
0000
0000
0000
0000
0000
0000
0000
0000
0000
0000
0310
0000
0000
0000
0000
0000
0000
0000
0000
0000
0000
0000
0000
0000
0000
0000
0000
0000
0000
0000
0000
0000
0000
0000
2000
0000
0000
0000
0000
0000
0000
0000
0000
0000
0000
0000
0000
0000
0000
0000
0000
0000
0000
0000
0000
0000
0000
0000
3001
0000
0000
0000
0000
0000
0000
0000
0000
0000
0000
0000
0000
0000
0000
0000
0000
0000
0000
0000
0000
0000
0000
0000
0200
0000
0000
0000
0000
0000
0000
0000
0000
0000
0000
0000
0000
0000
0000
0000
0000
0000
0000
0000
0000
0000
0000
0000
0310
0000
0000
0000
0000
0000
0000
0000
0000
0000
0000
0000
0000
0000
0000
0000
0000
0000
0000
0000
0000
0000
0000
0000
,
2000
0000
0000
0000
0000
0000
0100
0000
0000
0000
0000
0000
0010
0000
0000
0000
0000
0000
3001
0000
0000
0000
0000
0000
0000
0000
0000
0001
0010
0100
2000
0000
0000
0000
0000
0000
0000
0000
0000
0000
0000
0000
0000
0000
0000
0000
0000
0000
,
0000
0000
0000
0000
,
0000
0000
0000
0000
,
3000
0000
0000
0000
;

//---------------dance-single - Copied from----------------
#NOTES:
     dance-single:
     Copied from:
     Medium:
     6:
     0.549,0.564,0.437,0.009,0.055,373.000,48.000,1.000,0.000,0.000:
0001
0000
0010
1000
0100
0010
0001
0100
,
1000
0000
0010
0010
0100
0010
0100
0010
,
1000
0000
0100
0010
1000
0100
0001
0010
,
0001
0000
0010
0100
0010
1000
0001
0100
,
1000
0000
0010
0001
0100
0001
0010
1000
,
0001
0000
0010
0100
0010
1000
0100
0001
,
1000
0000
0010
0100
0001
1000
0100
0001
,
0010
0000
1000
0010
0001
1000
0001
0100
,
0001
0000
0110
0000
1000
0010
1000
0001
,
0100
0000
1001
0000
0100
1000
0010
0100
,
1000
0000
0110
0000
1000
0100
0010
0001
,
0100
0000
1001
0000
0010
1000
0001
0100
,
0100
0000
0101
0000
1000
0001
0010
0100
,
1000
0000
0101
0000
0010
0001
0010
0100
,
0010
0000
0101
0000
0100
0010
0001
1000
,
0001
0000
1010
0000
0100
0010
0100
0010
,
0001
0000
0110
0000
0001
0100
0001
0100
,
1000
0000
0101
0000
0010
0001
1000
0010
,
0010
0000
1001
0000
0100
1000
0010
0100
,
1000
0000
0110
0000
0100
1000
0001
0100
,
0100
0000
0110
0000
1000
0010
0100
0010
,
1000
0000
1001
0000
0100
0001
1000
0001
,
0100
0000
0110
0000
0001
0010
1000
0001
,
0100
0000
0101
0000
1000
0100
0010
1000
,
0001
0000
1001
0000
0100
0001
0010
0100
,
0100
0000
0110
0000
0001
0100
0010
1000
,
0100
0000
0110
0000
1000
0100
0010
0001
,
0010
0000
0110
0000
1000
0100
0001
0010
,
0100
0000
0101
0000
0010
0100
0010
1000
,
1000
0000
0101
0000
1000
0100
0010
0100
,
0001
0000
0101
0000
1000
0010
1000
0010
,
0100
0000
0110
0000
1000
0010
0001
0100
,
0010
0100
0000
0000
0101
0000
0000
0000
1010
0000
0000
0000
1001
0000
0000
0000
,
0010
1000
0000
0000
0101
0000
0000
0000
1010
0000
0000
0000
0101
0000
0000
0000
,
0010
1000
0000
0000
0101
0000
0000
0000
1010
0000
0000
0000
1001
0000
0000
0000
,
0100
0010
0000
0000
0101
0000
0000
0000
1010
0000
0000
0000
0101
0000
0000
0000
,
0010
0100
0000
0000
0101
0000
0000
0000
1010
0000
0000
0000
1001
0000
0000
0000
,
0010
0100
0000
0000
0101
0000
0000
0000
1010
0000
0000
0000
0110
0000
0000
0000
,
1000
0100
0000
0000
0101
0000
0000
0000
1010
0000
0000
0000
0101
0000
0010
0000
,
0100
0000
1000
0000
0010
0000
1000
0000
0110
0000
0000
0000
1000
0100
0001
0010
,
1000
0100
0001
0100
,
0001
0000
0001
0100
0001
1000
0100
0001
,
0100
0001
0001
0001
,
0011
0000
0010
0000
1000
0100
1000
0100
,
0010
0000
0100
0000
0100
1000
0100
1000
,
0100
0000
0010
0001
0010
0100
0001
1000
,
0110
1000
0100
1000
,
1000
0000
0100
0001
1000
0100
0010
0001
,
0100
1000
0001
0010
0001
0100
1000
0010
,
0001
0000
0100
0000
1000
0100
1000
0100
,
0010
0000
0100
0010
0100
1000
0100
0010
,
0001
0000
0010
0000
0100
0000
1000
0100
,
0010
0100
0010
0100
0001
0010
0100
1000
,
0010
0000
0100
0000
0100
0001
0100
0001
,
0100
0000
0010
0100
0010
0100
1000
0100
,
0010
0001
0010
0001
,
0010
0100
1000
0001
0010
0100
1000
0010
,
0001
0100
1000
0010
0100
0001
1000
0010
,
0100
1000
0100
0010
0100
0010
0100
0010
,
1000
0000
0000
0000
0000
0000
0100
0000
0000
0000
0000
0000
0010
0000
0000
0000
0000
0000
0001
0000
0000
0000
0000
0000
0000
0000
0000
0001
0010
0100
2000
0000
0000
0000
0000
0000
0000
0000
0000
0000
0000
0000
0000
0000
0000
0000
0000
0000
,
0000
0000
0000
0000
,
0000
0000
0000
0000
,
3000
0000
0000
0000
;

//---------------dance-single - Copied from Copied f----------------
#NOTES:
     dance-single:
     Copied from Copied f:
     Easy:
     4:
     0.475,0.480,0.000,0.009,0.014,364.000,0.000,1.000,0.000,0.000:
0001
0000
0010
1000
0100
0010
0001
0100
,
1000
0000
0010
0010
0100
0010
0100
0010
,
1000
0000
0100
0010
1000
0100
0001
0010
,
0001
0000
0010
0100
0010
1000
0001
0100
,
1000
0000
0010
0001
0100
0001
0010
1000
,
0001
0000
0010
0100
0010
1000
0100
0001
,
1000
0000
0010
0100
0001
1000
0100
0001
,
0010
0000
1000
0010
0001
1000
0001
0100
,
0001
0000
0100
0000
1000
0010
1000
0001
,
0100
0000
1000
0000
0100
1000
0010
0100
,
1000
0000
0100
0000
1000
0100
0010
0001
,
0100
0000
1000
0000
0010
1000
0001
0100
,
0100
0000
0001
0000
1000
0001
0010
0100
,
1000
0000
0100
0000
0010
0001
0010
0100
,
0010
0000
0100
0000
0100
0010
0001
1000
,
0001
0000
1000
0000
0100
0010
0100
0010
,
0001
0000
0010
0000
0001
0100
0001
0100
,
1000
0000
0100
0000
0010
0001
1000
0010
,
0010
0000
1000
0000
0100
1000
0010
0100
,
1000
0000
0100
0000
0100
1000
0001
0100
,
0100
0000
0010
0000
1000
0010
0100
0010
,
1000
0000
1000
0000
0100
0001
1000
0001
,
0100
0000
0010
0000
0001
0010
1000
0001
,
0100
0000
0100
0000
1000
0100
0010
1000
,
0001
0000
1000
0000
0100
0001
0010
0100
,
0100
0000
0010
0000
0001
0100
0010
1000
,
0100
0000
0100
0000
1000
0100
0010
0001
,
0010
0000
0100
0000
1000
0100
0001
0010
,
0100
0000
0001
0000
0010
0100
0010
1000
,
1000
0000
0100
0000
1000
0100
0010
0100
,
0001
0000
0100
0000
1000
0010
1000
0010
,
0100
0000
0010
0000
1000
0010
0001
0100
,
0010
0100
0010
1000
,
0010
0100
1000
0100
,
0010
0001
1000
0001
,
0100
0001
1000
0001
,
0010
0100
0010
1000
,
0010
0001
0010
0100
,
1000
0000
0100
0000
1000
0000
0100
0010
,
0100
1000
0010
1000
0010
0000
1000
0001
,
1000
0100
0001
0100
,
0001
0000
0001
0100
0001
1000
0100
0001
,
0100
0001
0001
0001
,
0010
0000
0010
0000
1000
0100
1000
0100
,
0010
0000
0100
0000
0100
1000
0100
1000
,
0100
0000
0010
0001
0010
0100
0001
1000
,
0100
1000
0100
1000
,
1000
0000
0100
0001
1000
0100
0010
0001
,
0100
1000
0001
0010
0001
0100
1000
0010
,
0001
0000
0100
0000
1000
0100
1000
0100
,
0010
0000
0100
0010
0100
1000
0100
0010
,
0001
0000
0010
0000
0100
0000
1000
0100
,
0010
0100
0010
0100
0001
0010
0100
1000
,
0010
0000
0100
0000
0100
0001
0100
0001
,
0100
0000
0010
0100
0010
0100
1000
0100
,
0010
0001
0010
0001
,
0010
0100
1000
0001
0010
0100
1000
0010
,
0001
0100
1000
0010
0100
0001
1000
0010
,
0100
1000
0100
0010
0100
0010
0100
0010
,
1000
0000
0000
0000
0000
0000
0100
0000
0000
0000
0000
0000
0010
0000
0000
0000
0000
0000
0001
0000
0000
0000
0000
0000
0000
0000
0000
0001
0010
0100
2000
0000
0000
0000
0000
0000
0000
0000
0000
0000
0000
0000
0000
0000
0000
0000
0000
0000
,
0000
0000
0000
0000
,
0000
0000
0000
0000
,
3000
0000
0000
0000
;

//---------------dance-single - Copied from Copied f----------------
#NOTES:
     dance-single:
     Copied from Copied f:
     Beginner:
     3:
     0.397,0.452,0.510,0.009,0.014,248.000,56.000,1.000,0.000,0.000:
0001
0010
0100
0001
,
1010
0010
0100
0100
,
1010
0100
1000
0001
,
0101
0010
0010
0001
,
1010
0010
0100
0010
,
0101
0010
0010
0100
,
1001
0010
0001
0100
,
0110
1000
0001
0001
,
0101
0100
1000
1000
,
0101
1000
0100
0010
,
1001
0100
1000
0010
,
0110
1000
0010
0001
,
0110
0001
1000
0010
,
1010
0100
0010
0010
,
0110
0100
0100
0001
,
0101
1000
0100
0100
,
0011
0010
0001
0001
,
1100
0100
0010
1000
,
0110
1000
0100
0010
,
1001
0100
0100
0001
,
0110
0010
1000
0100
,
1001
1000
0100
1000
,
0110
0010
0001
1000
,
1100
0100
1000
0010
,
1001
1000
0100
0010
,
0101
0010
0001
0010
,
0110
0100
1000
0010
,
0110
0100
1000
0001
,
1100
0001
0010
0010
,
1100
0100
1000
0010
,
0011
0100
1000
1000
,
0110
0010
1000
0001
,
1010
0100
0010
1000
,
0011
0100
1000
0100
,
1010
0001
1000
0001
,
0101
0001
1000
0001
,
1010
0100
0010
1000
,
0110
0001
0010
0100
,
1001
0100
1000
0100
,
0110
0010
0010
1000
,
1100
0100
0001
0100
,
0101
0001
0001
0100
,
0101
0001
0001
0001
,
1010
0010
1000
1000
,
0011
0100
0100
0100
,
0101
0010
0010
0001
,
1100
1000
0100
1000
,
1001
0100
1000
0010
,
0101
0001
0001
1000
,
0101
0100
1000
1000
,
0011
0100
0100
0100
,
0101
0010
0100
1000
,
0010
0010
0001
0100
,
1010
0100
0100
0100
,
0101
0010
0010
1000
,
0110
0001
0010
0001
,
1010
1000
0010
1000
,
0101
1000
0100
1000
,
0100
1000
0100
0001
0100
0010
0100
0010
,
1000
0000
0000
0000
0000
0000
0100
0000
0000
0000
0000
0000
0010
0000
0000
0000
0000
0000
1000
0000
0000
0000
0000
0000
0000
0000
0000
0001
0010
0100
2000
0000
0000
0000
0000
0000
0000
0000
0000
0000
0000
0000
0000
0000
0000
0000
0000
0000
,
0000
0000
0000
0000
,
0000
0000
0000
0000
,
3000
0000
0000
0000
;
